<?xml version="1.0" standalone="no"?>
<!DOCTYPE svg PUBLIC "-//W3C//DTD SVG 1.1//EN" "http://www.w3.org/Graphics/SVG/1.1/DTD/svg11.dtd">
<svg xmlns="http://www.w3.org/2000/svg">
<metadata>Copyright (C) 2016 by original authors @ fontello.com</metadata>
<defs>
<font id="fontello" horiz-adv-x="1000" >
<font-face font-family="fontello" font-weight="400" font-stretch="normal" units-per-em="1000" ascent="850" descent="-150" />
<missing-glyph horiz-adv-x="1000" />
<glyph glyph-name="tennant_icon_account" unicode="&#xe800;" d="M740 617c0-129-107-233-240-233-133 0-240 104-240 233 0 129 107 233 240 233 133 0 240-104 240-233l0 0 0 0z m260-767l-1000 0 80 395c0 54 45 97 100 97l620 0c55 0 100-43 100-97l100-395 0 0z" horiz-adv-x="1000" />

<glyph glyph-name="tennant_icon_hamburger" unicode="&#xe801;" d="M0 850l1059 0 0-176-1059 0 0 176 0 0z m0-412l1059 0 0-176-1059 0 0 176 0 0z m0-411l1059 0 0-177-1059 0 0 177 0 0z" horiz-adv-x="1059" />

<glyph glyph-name="tennant_icon_help" unicode="&#xe802;" d="M0 739l0-538c0-61 50-111 112-111l236 0 140-240 131 240 541 0c62 0 113 50 113 111l0 538c0 62-51 111-113 111l-1048 0c-62 0-112-49-112-111z m379-353c-43 0-77 34-77 75 0 42 34 76 77 76 42 0 76-34 76-76 0-41-34-75-76-75l0 0 0 0z m259 0c-43 0-77 34-77 75 0 42 34 76 77 76 42 0 76-34 76-76 0-41-34-75-76-75l0 0 0 0z m259 0c-43 0-77 34-77 75 0 42 34 76 77 76 42 0 76-34 76-76 0-41-34-75-76-75l0 0 0 0z" horiz-adv-x="1273" />

<glyph glyph-name="tennant_icon_language" unicode="&#xe803;" d="M0 318l0 64c1 3 2 7 2 10 4 51 15 100 35 146 71 164 193 265 368 303 20 4 40 6 61 9l68 0c23-3 46-6 68-11 269-55 444-323 387-591-57-270-322-446-591-386-205 45-333 175-385 379-7 25-9 52-13 77l0 0 0 0z m49 57l173 0c1 2 2 4 2 6 3 55 12 108 29 159 3 8-2 9-8 12-35 18-69 37-104 55-3 1-5 3-9 5-50-72-77-150-83-237l0 0 0 0z m819 234c-39-20-79-39-117-59-3-1-4-8-3-12 7-35 16-71 23-107 3-18 4-37 6-56l173 0c-1 77-42 193-82 234l0 0 0 0z m-615-455c-18 55-27 113-30 171l-174 0c6-87 33-166 82-235 42 22 81 43 122 64l0 0 0 0z m524 171c-3-59-13-117-30-171 41-21 81-42 121-64 40 43 82 162 82 235l-173 0 0 0z m-49 0l-203 0 0-122c59-10 117-20 176-30 15 47 25 98 27 152l0 0 0 0z m-253 0l-203 0c2-54 11-105 26-152 60 10 118 20 177 30l0 122 0 0z m224 202c-58-10-116-20-174-30l0-122 201 0c3 34-14 128-27 152l0 0 0 0z m-427-152l203 0 0 122c-59 10-117 20-175 31-16-48-26-99-28-153l0 0 0 0z m203-471l0 246c-55-2-107-11-159-27 37-85 88-158 159-219l0 0 0 0z m50 246l0-246c71 62 123 134 158 219-52 16-104 26-158 27l0 0 0 0z m-50 641c-70-60-121-130-157-214 52-16 103-25 157-27l0 241 0 0z m207-214c-37 84-88 155-157 214l0-241c54 2 105 11 157 27l0 0 0 0z m-81 211c53-58 96-122 127-197 38 20 73 39 110 58-67 73-144 119-237 139l0 0 0 0z m-439-139c37-19 73-38 110-58 31 76 74 140 127 198-93-21-171-67-237-140l0 0 0 0z m108-541c-36-19-72-38-108-57 65-71 141-117 235-140-55 59-97 123-127 197l0 0 0 0z m460 0c-30-74-73-138-127-197 94 23 170 69 235 140-37 19-72 38-108 57l0 0 0 0z" horiz-adv-x="1000" />

<glyph glyph-name="tennant_icon_left" unicode="&#xe804;" d="M556 749l-94 101-462-500 462-500 94 101-369 399 369 399 0 0z" horiz-adv-x="556" />

<glyph glyph-name="tennant_icon_minus" unicode="&#xe805;" d="M417 433l-417 0 0-166 417 0 166 0 417 0 0 166-417 0-166 0z" horiz-adv-x="1000" />

<glyph glyph-name="tennant_icon_plus" unicode="&#xe806;" d="M583 850l-166 0 0-417-417 0 0-166 417 0 0-417 166 0 0 417 417 0 0 166-417 0 0 417z" horiz-adv-x="1000" />

<glyph glyph-name="tennant_icon_right" unicode="&#xe807;" d="M0 749l93 101 463-500-463-500-93 101 369 399-369 399 0 0z" horiz-adv-x="556" />

<glyph glyph-name="tennant_icon_search" unicode="&#xe808;" d="M1000-54l-258 258c48 67 76 149 76 237 0 226-183 409-409 409s-409-183-409-409c0-226 183-409 409-409 88 0 170 28 237 76l258-258 96 96z m-909 495c0 176 142 318 318 318s318-142 318-318c0-176-142-318-318-318s-318 142-318 318z" horiz-adv-x="1000" />

<glyph glyph-name="tennant_icon_shoppingcart" unicode="&#xe809;" d="M1017-150c-2 0-5 0-8 0-53 0-96 43-96 96 0 53 43 97 96 97 3 0 6-1 8-1 3 0 6 1 9 1 53 0 96-44 96-97 0-53-43-96-96-96-3 0-6 0-9 0l0 0 0 0z m-583 0c-3 0-6 0-9 0-53 0-96 43-96 96 0 53 43 97 96 97 3 0 6-1 9-1 2 0 5 1 8 1 53 0 96-44 96-97 0-53-43-96-96-96-3 0-6 0-8 0l0 0 0 0z m-282 1000l-152 0 0-84 196 0 106-337 98-328 325 0 326 0 166 557-440 0-408 0-60 192-5-2 0 2-152 0 0 0z" horiz-adv-x="1217" />

<glyph glyph-name="cancel" unicode="&#xe80a;" d="M724 112q0-22-15-38l-76-76q-16-15-38-15t-38 15l-164 165-164-165q-16-15-38-15t-38 15l-76 76q-16 16-16 38t16 38l164 164-164 164q-16 16-16 38t16 38l76 76q16 16 38 16t38-16l164-164 164 164q16 16 38 16t38-16l76-76q15-15 15-38t-15-38l-164-164 164-164q15-15 15-38z" horiz-adv-x="785.7" />

<glyph glyph-name="right-open" unicode="&#xe80b;" d="M618 361l-414-415q-11-10-25-10t-26 10l-92 93q-11 11-11 25t11 25l296 297-296 296q-11 11-11 25t11 25l92 93q11 10 26 10t25-10l414-414q10-11 10-25t-10-25z" horiz-adv-x="714.3" />

<glyph glyph-name="left-open" unicode="&#xe80c;" d="M653 682l-296-296 296-297q11-10 11-25t-11-25l-92-93q-11-10-25-10t-25 10l-414 415q-11 10-11 25t11 25l414 414q10 10 25 10t25-10l92-93q11-10 11-25t-11-25z" horiz-adv-x="714.3" />

<glyph glyph-name="tennant_icon_left_large" unicode="&#xe80d;" d="M287-91c10-21 0-46-21-54-5-3-12-3-18-3-17 0-32 9-38 24l-207 456c-1 7-3 11-3 18 0 7 2 12 3 18l207 457c6 15 21 25 38 25 6 0 11-2 18-3 9-5 18-13 21-23 3-10 3-21-2-31l-198-443 200-441z" horiz-adv-x="290" />

<glyph glyph-name="tennant_icon_right_large" unicode="&#xe80e;" d="M290 350c0-7-1-11-3-18l-207-457c-6-15-21-25-37-25-7 0-12 2-18 3-22 10-32 35-22 54l199 441-199 443c-5 10-5 21 0 33 4 10 12 18 22 23 5 1 11 3 18 3 16 0 31-10 37-25l207-457c2-6 3-11 3-18z" horiz-adv-x="290" />

<glyph glyph-name="tennant_icon_down" unicode="&#xe80f;" d="M652-150l-652 500 0 500 633-500 653 500 0-500-634-500 0 0z" horiz-adv-x="1286" />

<glyph glyph-name="tennant_icon_up" unicode="&#xe810;" d="M652 850l-652-500 0-500 633 500 653-500 0 500-634 500z" horiz-adv-x="1286" />

<glyph glyph-name="tennant_icon_tick" unicode="&#xe811;" d="M1333 850l-889-667-444 445 0-334 441-444 892 667 0 333z" horiz-adv-x="1333" />

<glyph glyph-name="tennant_icon_info" unicode="&#xe812;" d="M500 850c276 0 500-224 500-500 0-276-224-500-500-500-276 0-500 224-500 500 0 276 224 500 500 500l0 0z m63-375l-125 0 0-375 125 0 0 375 0 0z m-62 62c21 0 36 6 47 17 10 11 16 26 16 46 0 42-21 63-63 63-42 0-63-21-63-63 0-42 21-63 63-63l0 0z" horiz-adv-x="1000" />

<glyph glyph-name="tennant_icon_questionmark" unicode="&#xe813;" d="M500 850c276 0 500-224 500-500 0-276-224-500-500-500-276 0-500 224-500 500 0 276 224 500 500 500l0 0z m30-601l0 25c0 17 4 30 10 40 7 11 24 26 50 45 38 28 64 53 77 75 14 22 21 48 21 78 0 46-17 82-50 110-33 27-77 41-133 41-68 0-132-18-192-52l44-91c52 27 98 41 139 41 23 0 41-5 54-14 13-10 20-23 20-41 0-16-5-31-14-44-9-13-27-30-56-50-30-22-50-43-61-63-11-19-17-42-17-69l0-31 108 0 0 0z m-102-193c13-12 30-18 53-18 22 0 40 6 52 18 12 13 19 30 19 52 0 23-6 40-19 52-12 12-30 18-52 18-23 0-41-6-53-18-13-11-19-29-19-52 0-22 7-40 19-52l0 0z" horiz-adv-x="1000" />

<glyph glyph-name="tennant_icon_calendar" unicode="&#xe814;" d="M1 849l-1-187 938 0-1 187-936 0 0 0 0 0 0 0z m-1-250l1-749 936 0 1 749-938 0 0 0 0 0 0 0z m688-125l125 0 0-125-125 0 0 125 0 0 0 0 0 0z m-187 0l124 0 0-125-124 0 0 125 0 0 0 0 0 0z m-188 0l125 0 0-125-125 0 0 125 0 0 0 0 0 0z m375-187l125 0 0-125-125 0 0 125 0 0 0 0 0 0z m-187 0l124 0 0-125-124 0 0 125 0 0 0 0 0 0z m-188 0l125 0 0-125-125 0 0 125 0 0 0 0 0 0z m-187 0l124 0 0-125-124 0 0 125 0 0 0 0 0 0z m375-188l124 0 0-125-124 0 0 125 0 0 0 0 0 0z m-188 0l125 0 0-125-125 0 0 125 0 0 0 0 0 0z m-187 0l124 0 0-125-124 0 0 125 0 0 0 0 0 0z" horiz-adv-x="938" />

<glyph glyph-name="tennant_icon_circle_check" unicode="&#xe815;" d="M500 850c-276 0-500-224-500-500 0-276 224-500 500-500 276 0 500 224 500 500 0 276-224 500-500 500l0 0z m-77-731l-231 230 89 89 142-142 300 301 88-89-388-389 0 0z" horiz-adv-x="1000" />

<glyph glyph-name="tennant_icon_circle_remove" unicode="&#xe816;" d="M500 850c-276 0-500-224-500-500s224-500 500-500 500 224 500 500-224 500-500 500z m265-677l-88-88-177 177-177-177-88 88 177 177-177 177 88 88 177-177 177 177 88-88-177-177 177-177z" horiz-adv-x="1000" />

<glyph glyph-name="tennant_icon_gridview_selected" unicode="&#xe817;" d="M1000 500h-200v100h200v-100z m-300 100h-200v-100h200v100z m300-400h-200v-100h200v100z m0 200h-200v-100h200v100z m-300 0h-200v-100h200v100z m-300-200h-200v-100h200v100z m800 650v-1000h-1200v1000h1200z m-100-100h-1000v-800h1000v800z m-400-550h-200v-100h200v100z m-300 200h-200v-100h200v100z m0 200h-200v-100h200v100z" horiz-adv-x="1200" />

<glyph glyph-name="tennant_icon_gridview" unicode="&#xe818;" d="M200 600l200 0 0-100-200 0 0 100 0 0z m0-200l200 0 0-100-200 0 0 100 0 0z m0-200l200 0 0-100-200 0 0 100 0 0z m300 400l200 0 0-100-200 0 0 100 0 0z m0-200l200 0 0-100-200 0 0 100 0 0z m0-200l200 0 0-100-200 0 0 100 0 0z m300 400l200 0 0-100-200 0 0 100 0 0z m0-200l200 0 0-100-200 0 0 100 0 0z m0-200l200 0 0-100-200 0 0 100 0 0z" horiz-adv-x="1200" />

<glyph glyph-name="tennant_icon_listview_selected" unicode="&#xe819;" d="M0 850v-1000h1200v1000h-1200z m1100-900h-1000v800h1000v-800z m-150 550h-700v100h700v-100z m0-200h-700v100h700v-100z m0-200h-700v100h700v-100z" horiz-adv-x="1200" />

<glyph glyph-name="tennant_icon_listview" unicode="&#xe81a;" d="M250 600l700 0 0-100-700 0 0 100 0 0z m0-200l700 0 0-100-700 0 0 100 0 0z m0-200l700 0 0-100-700 0 0 100 0 0z" horiz-adv-x="1200" />

<glyph glyph-name="tennant_icon_doc" unicode="&#xe81b;" d="M944 508h-80v120l-222 222h-567v-342h-75v-472h75v-186h789v186h80v472z m-786 261h431v-202h194v-59h-625v261z m625-838h-625v105h625v-105z m-469 344c0-47-14-83-39-108s-64-39-111-39h-92v283h97c45 0 81-11 106-36 28-22 39-56 39-100z m-81-3c0 25-5 45-16 59s-25 19-48 19h-19v-158h17c22 0 41 5 50 19 11 11 16 33 16 61z m389-3c0-47-11-83-36-108s-58-36-103-36-77 14-102 39-37 61-37 108c0 47 12 84 37 109 25 25 58 36 102 36s81-11 103-36c25-28 36-64 36-112z m-197 0c0-55 19-83 58-83 20 0 34 6 45 20 8 13 14 33 14 61s-6 50-14 64-25 19-42 19c-42 3-61-25-61-81z m372 84c-19 0-33-9-41-22-12-14-17-37-17-62 0-55 19-83 61-83 14 0 25 3 36 6s25 8 36 14v-64c-25-11-50-17-80-17-42 0-75 11-100 36s-34 61-34 108c0 31 6 56 17 78s28 39 47 53c20 11 45 17 72 17 31 0 62-6 89-20l-22-61c-11 6-22 8-30 11s-20 6-34 6z" horiz-adv-x="944" />

<glyph glyph-name="tennant_icon_document" unicode="&#xe81c;" d="M564 850h-564v-1000h786v778l-222 222z m-483-919v838h430l0-202h195v-634h-625z" horiz-adv-x="786" />

<glyph glyph-name="tennant_icon_pdf" unicode="&#xe81d;" d="M944 508h-80v120l-222 222h-567v-342h-75v-472h75v-186h789v186h80v472z m-786 261h431v-202h194v-59h-625v261z m625-838h-625v105h625v-105z m-447 388c0-30-8-55-28-72s-44-25-80-25h-20v-94h-77v283h97c36 0 64-8 80-22 20-17 28-39 28-70z m-128-36h14c11 0 20 3 28 9 6 5 11 16 11 27 0 20-11 28-30 28h-23v-64z m420-8c0-47-14-83-39-108s-64-39-111-39h-92v283h97c45 0 81-11 106-36 25-22 39-56 39-100z m-81-3c0 25-5 45-16 59s-25 19-48 19h-22v-158h17c22 0 41 5 50 19 14 11 19 33 19 61z m203-147h-75v286h167v-61h-92v-56h86v-61h-86v-108z" horiz-adv-x="944" />

<glyph glyph-name="tennant_icon_ppt" unicode="&#xe81e;" d="M944 508h-80v120l-222 222h-567v-342h-75v-472h75v-186h789v186h80v472z m-786 261h431v-202h194v-59h-625v261z m625-838h-625v105h625v-105z m-447 388c0-30-8-55-28-72s-44-25-80-25h-20v-94h-77v283h97c36 0 64-8 80-22 20-17 28-39 28-70z m-128-36h14c11 0 20 3 28 9 6 5 11 16 11 27 0 20-11 28-30 28h-23v-64z m384 36c0-30-9-55-28-72s-45-25-81-25h-22v-94h-78v283h98c36 0 63-8 80-22 22-17 31-39 31-70z m-128-36h14c11 0 19 3 28 9 5 5 11 16 11 27 0 20-11 28-31 28h-19l-3-64 0 0z m308-158h-78v222h-69v64h217v-64h-70v-222z" horiz-adv-x="944" />

<glyph glyph-name="tennant_icon_txt" unicode="&#xe81f;" d="M944 508h-80v120l-222 222h-567v-342h-75v-472h75v-186h789v186h80v472z m-786 261h431v-202h194v-59h-625v261z m625-838h-625v105h625v-105z m-536 205h-75v222h-69v64h216v-64h-72v-222z m370 0h-89l-56 89-55-89h-86l94 145-89 138h86l50-88 50 88h89l-89-144 95-139z m158 0h-78v222h-69v64h216v-64h-69c0 0 0-222 0-222z" horiz-adv-x="944" />

<glyph glyph-name="tennant_icon_xls" unicode="&#xe820;" d="M944 508h-80v120l-222 222h-567v-342h-75v-472h75v-186h789v186h80v472z m-786 261h431v-202h194v-59h-625v261z m625-838h-625v105h625v-105z m-402 205h-89l-56 89-55-89h-87l95 145-89 138h86l50-88 50 88h89l-89-144 95-139z m27 0v286h78v-222h108v-61h-186v-3z m420 86c0-16-6-33-14-47s-22-25-39-31c-17-8-36-11-58-11-20 0-36 0-48 3-13 3-25 8-38 14v69c13-8 30-13 44-16s31-6 44-6c12 0 20 3 25 6 6 3 9 8 9 14 0 2 0 8-3 11s-6 5-11 8c-6 3-17 8-39 20-19 8-33 16-42 25s-16 16-19 27-6 23-6 36c0 25 9 48 28 62s45 22 78 22c30 0 58-6 89-20l-22-58c-28 11-50 19-70 19-11 0-17-2-22-5s-6-8-6-14 3-11 9-14c5-5 22-11 47-25 25-11 42-22 50-36 8-17 14-33 14-53z" horiz-adv-x="944" />

<glyph glyph-name="tennant_icon_square_remove" unicode="&#xe821;" d="M0 850v-1000h867v1000h-867z m653-693c14-14 7-34-6-47-7-7-14-7-20-7-7 0-20 7-27 14l-167 200-166-200c-7-7-14-14-27-14-7 0-13 0-20 7-13 13-13 33-7 47l174 206-167 214c-13 13-13 33 0 46 13 7 40 7 47-6l166-200 167 200c13 13 33 13 47 6 13-13 20-33 6-46l-173-214 173-206z" horiz-adv-x="867" />

<glyph glyph-name="tennant_icon_download" unicode="&#xe822;" d="M1126-143l0 0 0 0-152 0v0h-967v0h-7v549h139v-424h841v418h146v-424h0v-119z m-570 344l252 252-172 0v397h-153v-397l-172 0 245-252z" horiz-adv-x="1126" />

<glyph glyph-name="documen_tcart_icon" unicode="&#xe823;" d="M567 827h-399c-15 0-27-12-27-27v-888c0-16 13-27 27-27h667c16 0 27 12 27 27v646h-295v269l0 0z m42-38h-4v-193h216l-212 193z" horiz-adv-x="1000" />

<glyph glyph-name="utility_email" unicode="&#xe824;" d="M498 368l-381 207h767l-386-207z m389 207m0-68l-384-209-389 209v-382h773" horiz-adv-x="1000" />

<glyph glyph-name="utility_favorites" unicode="&#xe825;" d="M501 769l136-277 306-44-221-216 52-304-273 144-273-144 52 304-221 216 305 44 137 277z" horiz-adv-x="1000" />

<glyph glyph-name="utility_print" unicode="&#xe826;" d="M112 587v-301h113v-191h553v191h113v301h-779z m593-419h-409v248h409v-248z m-77 173h-271v27h271v-27z m0-63h-271v28h271v-28z m0-62h-271v28h271v-28z" horiz-adv-x="1000" />

<glyph glyph-name="utility_share" unicode="&#xe827;" d="M603 516l-219-102c9-19 15-41 15-64 0-22-5-42-13-61l220-102c21 17 48 28 77 31 78 7 147-51 154-129 7-78-51-147-129-154-78-7-147 51-154 129-2 22 1 43 8 62l-227 106c-22-15-49-24-78-24-78 0-142 64-142 142 0 78 64 142 142 142 27 0 53-8 74-21l231 107c-6 18-9 38-7 58 7 78 76 135 154 129 78-7 136-76 129-154-7-78-76-136-154-129-31 3-59 15-81 34z" horiz-adv-x="1000" />
</font>
</defs>
</svg>
